Mailinglist Archive: opensuse-multimedia-de (45 mails)

< Previous Next >
Re: [opensuse-multimedia-de] afconvert
Am Freitag, 7. Januar 2011 18:43:11 schrieb David Haller:

Hallo,

Am Wed, 05 Jan 2011, Thomas Moritz schrieb:
ich suche eine Linux-Version von "afconvert" oder die Sourcen.
Entweder bin ich des Suchens gerade nicht maechtig, oder das Licht
am Ende des Tunnels ist noch nicht zu sehen :-(

...oder wie laesst sich ein *.caf
[ CoreAudio Format audio file version 1 ]
sonst noch konvertieren?

http://packman.links2linux.de/package/pacpl

Is nich - > exitcode 256
egal in welches Format :-(

Was sagt eigentlich mediainfo zu der Datei? Im Netz finde ich, daß
das .caf alles mögliche sein kann (WAV, AIFF, AAC) ...

<mediainfo -f>

General
Count : 267
Count of stream of this kind : 1
Kind of stream : General
Kind of stream : General
Stream identifier : 0
Complete name : Test.caf
File name : Test.caf
File extension : caf
File size : 57000
File size : 55.7 KiB
File size : 56 KiB
File size : 56 KiB
File size : 55.7 KiB
File size : 55.66 KiB
Stream size : 57000
Stream size : 55.7 KiB (100%)
Stream size : 56 KiB
Stream size : 56 KiB
Stream size : 55.7 KiB
Stream size : 55.66 KiB
Stream size : 55.7 KiB (100%)
Proportion of this stream : 1.00000
File last modification date : UTC 2011-01-06 16:10:24
File last modification date (loc : 2011-01-06 17:10:24

...und mplayer meint:

Playing Test.caf.
Invalid seek to negative position!
libavformat file format detected.
[lavf] stream 0: audio (adpcm_ima_qt), -aid 0
==========================================================================
Cannot find codec for audio format 0x696D6134.
Audio: no sound
Video: no video

Trotzdem besten Dank fuer die Muehe!

MfG Th. Moritz
--
To unsubscribe, e-mail: opensuse-multimedia-de+unsubscribe@xxxxxxxxxxxx
For additional commands, e-mail: opensuse-multimedia-de+help@xxxxxxxxxxxx

< Previous Next >