Mailinglist Archive: opensuse-ja (78 mails)

< Previous Next >
Re: [opensuse-ja] The installation problem: Codecs and WinFF, the ffmpeg GUI front
  • From: Satoru Matsumoto <helios_reds@xxxxxxx>
  • Date: Tue, 21 Sep 2010 20:28:36 +0900
  • Message-id: <4C9896E4.7060507@xxxxxxx>
松本です。

えー、山本さんから直メールで返信いただいてしまいましたので、とりあえずそ
のままこちらへ回送しておきます。

@山本さん

Thunderbird をお使いのようですね。openSUSE 関連のメーリングリストは「返
信」してしまうとメーリングリスト宛ではなく、直接その相手に返信してしまう
ことになります。次回からは「リストに返信」を選んでリプライしてみてください。


==== 以下、山本さんよりのメール ====


レスポンス ありがとうございます 松本さま。
今日頂いたメールは よく読んでから 返信する予定です。

WinFFについての追記をいたします。

1)その後、http://packman.links2linux.org/package/winff
PackManのあのページにある WinFFの「ワンクリックインストール」を試してみ
ました。
インストールは 上手くゆきました。
しかし やはりエンコードは うまくゆきませんでした。

2)ターミナル端末
ターミナル端末でffmpegを操作してみました。
以下は そのときの記録です。wavからmp3への変換です。

frankie@localhost:~> cd デスクトップ

frankie@localhost:~/デスクトップ> ffmpeg -i re13.wav -ab 192k -ac 2
rre13.mp3

FFmpeg version UNKNOWN, Copyright (c) 2000-2010 the FFmpeg developers

built on Sep 14 2010 12:08:12 with gcc 4.4.1 [gcc-4_4-branch revision
150839]

configuration: --prefix=/usr --mandir=/usr/share/man --libdir=/usr/lib
--shlibdir=/usr/lib --enable-pthreads --enable-shared --enable-avfilter
--disable-static --enable-libmp3lame --enable-libxvid --enable-libx264
--enable-postproc --enable-shared --enable-libdc1394 --enable-libtheora
--enable-libschroedinger --enable-libvpx --enable-gpl
--enable-libopencore-amrnb --enable-libopencore-amrwb --enable-version3

libavutil 50.26. 0 / 50.26. 0

libavcore 0. 9. 0 / 0. 9. 0

libavcodec 52.88. 0 / 52.88. 0

libavformat 52.78. 5 / 52.78. 5

libavdevice 52. 2. 2 / 52. 2. 2

frankie@localhost:~> cd デスクトップ

frankie@localhost:~/デスクトップ> ffmpeg -i re13.wav -ab 192k -ac 2
rre13.mp3

FFmpeg version UNKNOWN, Copyright (c) 2000-2010 the FFmpeg developers

built on Sep 14 2010 12:08:12 with gcc 4.4.1 [gcc-4_4-branch revision
150839]

configuration: --prefix=/usr --mandir=/usr/share/man --libdir=/usr/lib
--shlibdir=/usr/lib --enable-pthreads --enable-shared --enable-avfilter
--disable-static --enable-libmp3lame --enable-libxvid --enable-libx264
--enable-postproc --enable-shared --enable-libdc1394 --enable-libtheora
--enable-libschroedinger --enable-libvpx --enable-gpl
--enable-libopencore-amrnb --enable-libopencore-amrwb --enable-version3

libavutil 50.26. 0 / 50.26. 0

libavcore 0. 9. 0 / 0. 9. 0

libavcodec 52.88. 0 / 52.88. 0

libavformat 52.78. 5 / 52.78. 5

libavdevice 52. 2. 2 / 52. 2. 2

libavfilter 1.38. 3 / 1.38. 3

libswscale 0.11. 0 / 0.11. 0

libpostproc 51. 2. 0 / 51. 2. 0

[wav @ 0x807c470] max_analyze_duration reached

[wav @ 0x807c470] Estimating duration from bitrate, this may be inaccurate

Input #0, wav, from 're13.wav':

Duration: 00:03:11.58, bitrate: 1411 kb/s

Stream #0.0: Audio: pcm_s16le, 44100 Hz, 2 channels, s16, 1411 kb/s

Output #0, mp3, to 'rre13.mp3':

Metadata:

TSSE : Lavf52.78.5

Stream #0.0: Audio: libmp3lame, 44100 Hz, 2 channels, s16, 192 kb/s

Stream mapping:

Stream #0.0 -> #0.0

Press [q] to stop encoding

size= 4491kB time=191.61 bitrate= 192.0kbits/s

video:0kB audio:4491kB global headers:0kB muxing overhead 0.000718%

frankie@localhost:~/デスクトップ>

libavfilter 1.38. 3 / 1.38. 3

libswscale 0.11. 0 / 0.11. 0

libpostproc 51. 2. 0 / 51. 2. 0

[wav @ 0x807c470] max_analyze_duration reached

[wav @ 0x807c470] Estimating duration from bitrate, this may be inaccurate

Input #0, wav, from 're13.wav':

Duration: 00:03:11.58, bitrate: 1411 kb/s

Stream #0.0: Audio: pcm_s16le, 44100 Hz, 2 channels, s16, 1411 kb/s

Output #0, mp3, to 'rre13.mp3':

Metadata:

TSSE : Lavf52.78.5

Stream #0.0: Audio: libmp3lame, 44100 Hz, 2 channels, s16, 192 kb/s

Stream mapping:

Stream #0.0 -> #0.0

Press [q] to stop encoding

size= 4491kB time=191.61 bitrate= 192.0kbits/s

video:0kB audio:4491kB global headers:0kB muxing overhead 0.000718%

frankie@localhost:~/デスクトップ>


ffmpegはインストールOKのようです。 機能しています。
変換後のファイルも 正常でした。 
(注意:私はターミナル操作はできません。コマンドはSUSEのとある先輩に以前
教えてもらったものです)

あらためて 結果を報告させてもらいます。
松本さま、みなさま、 ご協力ありがとうございます。





(2010年09月21日 13:48), Satoru Matsumoto wrote:
松本です。

(2010/09/21 10:10), F.Yamamoto wrote:

はじめてメールいたします。 よろしくお願いします。

はじめまして。

[...snip]


…完全に本題とはずれますけれど、お名前と上記から勝手に察するところ、日本
語はあまり使い慣れていらっしゃらない方だったりしますでしょうか?

もし英語とかドイツ語のほうが読み書きしやすい、というような方でしたら、得
意な言葉でやりとりできるメーリングリストやフォーラムを使うという手もあり
ます。

# もちろん、ここじゃダメ、といってるわけじゃありませんので、誤解なさらな
# いでくださいね。


私の場合、言語というよりも Linuxの「ジャーゴン」のハードルの方が 高い
です。
デフォルトGWは ゴールデンウィークです。 
Rubyは 寺尾聰です。
SMplayerは 女王さまです。 (←MLを汚してすみません)
いつも 笑われますが これは「知識のデフォルト」の問題ですので 努力して
みます。
お気遣い ありがとうございます。


山本
--
To unsubscribe, e-mail: opensuse-ja+unsubscribe@xxxxxxxxxxxx
For additional commands, e-mail: opensuse-ja+help@xxxxxxxxxxxx

< Previous Next >
Follow Ups