Mailinglist Archive: opensuse-es (1152 mails)

< Previous Next >
Re: [opensuse-es] Re: Generando avis
  • From: "Carlos E. R." <robin.listas@xxxxxxxxxxxxxx>
  • Date: Fri, 18 Dec 2009 22:56:49 +0100 (CET)
  • Message-id: <alpine.LSU.2.00.0912182237130.4905@xxxxxxxxxxxxxxxx>
-----BEGIN PGP SIGNED MESSAGE-----
Hash: SHA1



El 2009-12-18 a las 18:47 -0000, Camaleón escribió:

El Fri, 18 Dec 2009 18:58:51 +0100, Carlos E. R. escribió:

¡Pero es que para usarlo hace falta preparse una tesis doctoral!
Jolines :-/

Ah, que *no has visto* los enlaces que te he pasado.

Vale :-)

Porque para copiar y pegar no hace falta ser muy "docto".

Ains...


No suspires tanto. Te estamos intentando ayudar >:-)


Y lo haceis, pero tengo tanta información y cosas por hacer, que no doy a basto O:-)


] There are more things in heaven and earth, Horatio, than are dreamt of
in your philosophy


"Hay más cosas en el cielo y la tierra de las que tu filosofía puede
soñar, Horacio".

¿Me mandas al fantasma de Hamlet para asustarme? =:-)

kill -9 ghost

:-P


X'-)

Tiene otro significado: el de que hay más cosas de las que se ven. Luego mando el enlace, lo tengo en el otro ordenador.



Ví lo que copiaste del enlace, no todo. Podías haber puesto este otro
texto:

No lo puse, a propósito, para que entraras en las páginas e hicieras
pruebas.


Pero es que el párrafo de abajo es el que me animó a empezar a usar el ffmpeg. Los otros no.

Don't let the multipage listing scare you from using FFmpeg, the basic
usage is actually very simple. To convert a file with the default
settings, run the following command:

ffmpeg -i InputFile OutputFile


Ese no es el párrafo que te interesa, precisamente.


Claro que sí, porque es el que me convence de que el ffmpeg es más sencillo de lo que parece. Si no es por ese párrafo, no lo pruebo.



(...)

Guiandome por el ejemplo de la pagina web, que lo que hacen es _quitar_
una pista de sonido, y yo quiero _añadir_ otra pista de audio, hago:


***
Choose between Multiple Audio Streams to Encode the Output File
***


Pero es que yo no quiero /escoger/. Quiero que me lo meta todo.


cer@bombadillo:/mnt/TestBig/Video/dvd> ffmpeg -threads 4 -map 0:0 -map
1:1 -map 2:2 -i ../Source\ El\ coleccionista\ de\ huesos.mpeg El\
coleccionista\ de\ huesos.avi

(...)

No lo consigo. No se como rayos decirle que pille las dos pistas de
audio, he probado varias combinaciones pera nada.

Y no, en esa página de ejemplos no pone como hacerlo.

Tu stream de audio es el "0:1" y "0:2" o eso ponía arriba:

***
Stream #0.1[0x1c1]: Audio: mp2, 48000 Hz, 2 channels, s16, 128 kb/s
Stream #0.2[0x1c0]: Audio: mp2, 48000 Hz, 2 channels, s16, 192 kb/s
***

¿De dónde sacas el "1:1", "2:2"? :-?

Lo he probado de varias formas. Ese 1:1 lo he pillado de uno de los ejemplos. A la izquierda del ":" es la entrada y a la derecha es la salida.

- -- Saludos
Carlos E. R.

-----BEGIN PGP SIGNATURE-----
Version: GnuPG v2.0.9 (GNU/Linux)

iEYEARECAAYFAksr+qgACgkQtTMYHG2NR9U0aQCgjbk62STxr9LfSUrVSEypTMW3
PyUAoIHowfFR70EYNhwaDvwb7h9l70o+
=LcgY
-----END PGP SIGNATURE-----
< Previous Next >
This Thread
Follow Ups